[ login ] [ registrati! ]   


- Big.Sky.2020.S02E17.Questioni.di.famiglia.iTALiAN.MULTi.1080p.AMZN.WEB-DL.DDP5.1.H.264-MeM.GP.mkv -


Download via torrent:
Categoria bittorrent SerieTv
Descrizione
[center]
[/center]
[center]Big.Sky.S02.iTALiAN.MULTi.1080p.AMZN.WEB-DL.DDP5.1.H264-MeM.GP[/center]




[center]
Titolo Originale: Big Sky
Anno: 2020
Stagione: 02
Episodi: 16??
Durata: 44 min (episodio)
Genere: thriller, poliziesco


Trama:

I detective privati Cassie Dewell e Cody Hoyt uniscono le forze con la
sua ex moglie ed ex poliziotta, Jenny Hoyt, per cercare due sorelle che
sono state rapite da un camionista su una remota autostrada in
Montana. Quando scoprono che queste non sono le uniche ragazze
scomparse nella zona, devono correre contro il tempo per fermare
l'assassino prima che un'altra donna venga rapita.







Sorgente Video:  AMZN WEB-DL
Sorgente Audio: Disney+
Risoluzione: 1920x1080, x264
Audio 1: ITA EAC-3 6ch @256kb/s
Audio 2: ENG EAC-3 6ch @640 kb/s
Sottotitoli:  ITA FORCED, ITA FULL, ENG FULL,

Code

Big.Sky.2020.S02E01.Sveglia.sveglia.iTALiAN.MULTi.1080p.AMZN.WEB-DL.DDP5.1.H.264-MeN.GP.mkv
Format                                   : Matroska
Format version                           : Version 4 / Version 2
File size                                : 2.97 GiB
Duration                                 : 43mn 1s
Overall bit rate                         : 9 886 Kbps
Encoded date                             : UTC 2022-01-05 08:37:29
Writing application                      : mkvmerge v7.6.0 ('Garden of Dreams&#39 64bit built on Feb  8 2015 15:12:28
Writing library                          : libebml v1.3.1 + libmatroska v1.4.2
_STATISTICS_WRITING_APP                  : mkvmerge v7.6.0 ('Garden of Dreams&#39 64bit built on Feb  8 2015 15:12:28
_STATISTICS_TAGS                         : BPS DURATION NUMBER_OF_FRAMES NUMBER_OF_BYTES
DURATION                                 : 00:43:01.248000000
NUMBER_OF_FRAMES                         : 80664
NUMBER_OF_BYTES                          : 82599936
_STATISTICS_WRITING_DATE_UTC             : 2022-01-05 08:37:29

Video
ID                                       : 1
Format                                   : AVC
Format/Info                              : Advanced Video Codec
Format profile                           : [email protected]
Format settings, CABAC                   : Yes
Format settings, ReFrames                : 4 frames
Codec ID                                 : V_MPEG4/ISO/AVC
Duration                                 : 43mn 1s
Bit rate mode                            : Constant
Bit rate                                 : 8 793 Kbps
Nominal bit rate                         : 10 000 Kbps
Width                                    : 1 920 pixels
Height                                   : 1 080 pixels
Display aspect ratio                     : 16:9
Frame rate                               : 23.976 fps
Color space                              : YUV
Chroma subsampling                       : 4:2:0
Bit depth                                : 8 bits
Scan type                                : Progressive
Bits/(Pixel*Frame)                       : 0.177
Stream size                              : 2.64 GiB (89%)
Default                                  : Yes
Forced                                   : No
Color primaries                          : BT.709-5, BT.1361, IEC 61966-2-4, SMPTE RP177
Transfer characteristics                 : BT.709-5, BT.1361
Matrix coefficients                      : BT.709-5, BT.1361, IEC 61966-2-4 709, SMPTE RP177

Audio #1
ID                                       : 2
Format                                   : E-AC-3
Format/Info                              : Audio Coding 3
Codec ID                                 : A_EAC3
Duration                                 : 43mn 1s
Bit rate mode                            : Constant
Bit rate                                 : 256 Kbps
Channel(s)                               : 6 channels
Channel positions                        : Front: L C R, Side: L R, LFE
Sampling rate                            : 48.0 KHz
Compression mode                         : Lossy
Stream size                              : 78.8 MiB (3%)
Title                                    : ITA
Language                                 : Italian
Default                                  : Yes
Forced                                   : No

Audio #2
ID                                       : 3
Format                                   : E-AC-3
Format/Info                              : Audio Coding 3
Codec ID                                 : A_EAC3
Duration                                 : 43mn 1s
Bit rate mode                            : Constant
Bit rate                                 : 640 Kbps
Channel(s)                               : 6 channels
Channel positions                        : Front: L C R, Side: L R, LFE
Sampling rate                            : 48.0 KHz
Compression mode                         : Lossy
Stream size                              : 197 MiB (6%)
Title                                    : ENG
Language                                 : English
Default                                  : No
Forced                                   : No

Text #1
ID                                       : 4
Format                                   : UTF-8
Codec ID                                 : S_TEXT/UTF8
Codec ID/Info                            : UTF-8 Plain Text
Title                                    : Forced
Language                                 : Italian
Default                                  : Yes
Forced                                   : Yes

Text #2
ID                                       : 5
Format                                   : UTF-8
Codec ID                                 : S_TEXT/UTF8
Codec ID/Info                            : UTF-8 Plain Text
Title                                    : SDH
Language                                 : English
Default                                  : No
Forced                                   : No

Text #3
ID                                       : 6
Format                                   : UTF-8
Codec ID                                 : S_TEXT/UTF8
Codec ID/Info                            : UTF-8 Plain Text
Default                                  : No
Forced                                   : No

Text #4
ID                                       : 7
Format                                   : UTF-8
Codec ID                                 : S_TEXT/UTF8
Codec ID/Info                            : UTF-8 Plain Text
Language                                 : English
Default                                  : No
Forced                                   : No






[







[/center]
Info: Per scaricare devi usare un client come uTorrent o Transmission
AnnounceURL
udp://tracker.opentrackr.org:1337/announce
Hash 2b7ec1a2346466543a64e0b5e2267b7988269d46
Peers seeds: 0 , leech: 0
Size 2.73 GB
Completato 0x
Aggiunto 05.08.22 - 23:08:20
Uploader   ppb1
Votazione (Voti: 0)


Condividi questo bittorrent:


html/blog:


bbcode/forum: